Torrent details for "Master Z Ip Ma Legacy (2018) ITA-CHI Ac3 5.1 BDRip 1080p H264 [ArMor]"    Log in to bookmark

Loading...
Loading...
Torrent details
Cover
Download
Torrent rating (0 rated)
Controls:
Category:
Language:
Italian Italian
Total Size:
3.53 GB
Info Hash:
525d07e18878c8d2705af8843232460839494fba
Added By:
ArMor:_trusted_uploader:  
Added:  
17-10-2020 21:55
Views:
224
Health:
Seeds:
108
Leechers:
40
Completed:
545

File List (3) : 

Description







Regista: Yuen Woo-ping
Genere: Azione
Anno: 2018
Paese: Hong Kong, Cina
Durata: 107 min
Distribuzione: Mandarin Motion Pictures Distribution, Well Go USA Entertainment



Master Z - Ip Man Legacy, il film diretto da Woo-Ping Yuen, racconta i fatti avvenuti in seguito alla sconfitta dell'abile Cheung Tin Chi (Jin Zhang) contro il suo ex maestro. Dopo aver perso il leggendario combattimento contro Ip Man, Cheung Tin Chi decide di voltare definitivamente le spalle alle arti marziali per condurre un'esistenza semplice a Hong Kong, dove lavora come cameriere e vive insieme a suo figlio.

While keeping a low profile after his defeat by Ip Man, Cheung Tin Chi gets into trouble after getting in a fight with a powerful foreigner.












General
Unique ID                                : 251815023983966803491152364771351233530 (0xBD71CF3C4AB90412BEE4A94D435883FA)
Complete name                            : Master Z Ip Ma Legacy (2018) ITA-CHI Ac3 5.1 BDRip 1080p H264 [ArMor].mkv
Format                                   : Matroska
Format version                           : Version 4
File size                                : 3.53 GiB
Duration                                 : 1 h 47 min
Overall bit rate                         : 4 686 kb/s
Encoded date                             : UTC 2020-10-17 19:19:45
Writing application                      : mkvmerge v15.0.0 ('Duel with the Devil') 64-bit
Writing library                          : libebml v1.3.5 + libmatroska v1.4.5 / Lavf58.29.100

Video
ID                                       : 1
Format                                   : AVC
Format/Info                              : Advanced Video Codec
Format profile                           : Main@L4
Format settings                          : CABAC / 4 Ref Frames
Format settings, CABAC                   : Yes
Format settings, Reference frames        : 4 frames
Codec ID                                 : V_MPEG4/ISO/AVC
Duration                                 : 1 h 47 min
Bit rate                                 : 3 788 kb/s
Width                                    : 1 920 pixels
Height                                   : 804 pixels
Display aspect ratio                     : 2.40:1
Frame rate mode                          : Constant
Frame rate                               : 24.000 FPS
Color space                              : YUV
Chroma subsampling                       : 4:2:0
Bit depth                                : 8 bits
Scan type                                : Progressive
Bits/(Pixel*Frame)                       : 0.102
Stream size                              : 2.85 GiB (81%)
Writing library                          : x264 core 157 r2935 545de2f
Encoding settings                        : cabac=1 / ref=2 / deblock=1:0:0 / analyse=0x1:0x111 / me=hex / subme=6 / psy=1 / psy_rd=1.00:0.00 / mixed_ref=1 / me_range=16 / chroma_me=1 / trellis=1 / 8x8dct=0 / cqm=0 / deadzone=21,11 / fast_pskip=1 / chroma_qp_offset=-2 / threads=18 / lookahead_threads=3 / sliced_threads=0 / nr=0 / decimate=1 / interlaced=0 / bluray_compat=0 / constrained_intra=0 / bframes=3 / b_pyramid=2 / b_adapt=1 / b_bias=0 / direct=1 / weightb=1 / open_gop=0 / weightp=1 / keyint=240 / keyint_min=24 / scenecut=40 / intra_refresh=0 / rc_lookahead=30 / rc=crf / mbtree=1 / crf=20.0 / qcomp=0.60 / qpmin=0 / qpmax=69 / qpstep=4 / vbv_maxrate=20000 / vbv_bufsize=25000 / crf_max=0.0 / nal_hrd=none / filler=0 / ip_ratio=1.40 / aq=1:1.00
Default                                  : Yes
Forced                                   : No
Color range                              : Limited
Color primaries                          : BT.709
Transfer characteristics                 : BT.709
Matrix coefficients                      : BT.709

Audio #1
ID                                       : 2
Format                                   : AC-3
Format/Info                              : Audio Coding 3
Commercial name                          : Dolby Digital
Codec ID                                 : A_AC3
Duration                                 : 1 h 47 min
Bit rate mode                            : Constant
Bit rate                                 : 448 kb/s
Channel(s)                               : 6 channels
Channel layout                           : L R C LFE Ls Rs
Sampling rate                            : 48.0 kHz
Frame rate                               : 31.250 FPS (1536 SPF)
Compression mode                         : Lossy
Stream size                              : 345 MiB (10%)
Title                                    : WEBDL
Language                                 : Italian
Service kind                             : Complete Main
Default                                  : Yes
Forced                                   : No

Audio #2
ID                                       : 3
Format                                   : AC-3
Format/Info                              : Audio Coding 3
Commercial name                          : Dolby Digital
Codec ID                                 : A_AC3
Duration                                 : 1 h 47 min
Bit rate mode                            : Constant
Bit rate                                 : 448 kb/s
Channel(s)                               : 6 channels
Channel layout                           : L R C LFE Ls Rs
Sampling rate                            : 48.0 kHz
Frame rate                               : 31.250 FPS (1536 SPF)
Compression mode                         : Lossy
Stream size                              : 345 MiB (10%)
Title                                    : Surround
Language                                 : Chinese
Service kind                             : Complete Main
Default                                  : No
Forced                                   : No



Similar torrents

Name 
DL
Uploader
Size 
S/L 
Added
-
3.19 GB
184
[4/4]
18/10/20 18:26
Uploaded by LoZio:_verified_uploader: Size 3.19 GBHealth [4/4]Added 18/10/20 18:26

  User comments

No comments have been posted yet.


Post anonymous comment
:) :( :D :P :-) B) 8o :? 8) ;) :-* :-( :| O:-D :-@ :facepalm :o) brb :warn :help :bad :love :idea :bomb :!


CAPTCHA Image 

Anonymous comments have a moderation delay and show up after 15 minutes

  Sitefriends