Torrent details for "Aman Reis Duymasin 2019 1080p NF WEB-DL DDP5.1 H.264-MRRG"    Log in to bookmark

Loading...
Loading...
Torrent details
Cover
Download
Torrent rating (0 rated)
Controls:
Category:
Language:
Turkish Turkish
Total Size:
2.27 GB
Info Hash:
8aca3b799e98940917e14b6407beffbb59db5db9
Added By:
Added:  
21-11-2020 18:31 (edited 21-11-2020 18:32) by mollyreck:_verified_uploader::_female::_kitty::_sun:
Views:
182
Health:
Seeds:
2
Leechers:
3
Completed:
7

File List (1) : 
Title:
Genre:
Comedy
Runtime:
100 min    -    Rating: 5.9
Director:
Plot:
The Istanbul Mafia needs holidays too. The most infamous names of the underworld gather together with their families in a tranquil seaside village. They must make sure the boss does not hear, though.

Description


"Aman Reis Duymasın" filmi, yeraltı mafya camiasının çıktığı bir tatili konu ediniyor. Eşkıya Dünyaya Hükümdar Olmaz dizisinden tanıdığımız karakterler, tatil için gittikleri yere adımlarını atar atmaz inanılmaz olaylarla karşılaşırlar. Ancak bu onları yıldırmaz ve tatillerine devam ederler. Alışkın oldukları büyük şehrin atmosferinden eser burada yoktur. Küçük bir kasaba olan tatil merkezinde başlarına gelmeyen kalmayacaktır. En büyük korkuları ise liderleri Hızır Çakırbeyli'nin bu olanları duyacak olmasıdır.







Quote:

General
Unique ID                                : 228018302907417984065018429918201502957 (0xAB8ABA4D6A83D1BC93F8B03FA807DCED)
Complete name                            : Aman Reis Duymasin 2019 1080p NF WEB-DL DDP5.1 H.264 MRRG.mkv
Format                                   : Matroska
Format version                           : Version 4 / Version 2
File size                                : 2.27 GiB
Duration                                 : 1h 39mn
Overall bit rate                         : 3 258 Kbps
Movie name                               : OpeD
Encoded date                             : UTC 2020-11-21 13:50:48
Writing application                      : mkvmerge v10.0.0 ('To Drown In You') 64bit
Writing library                          : libebml v1.3.4 + libmatroska v1.4.5

Video
ID                                       : 1
Format                                   : AVC
Format/Info                              : Advanced Video Codec
Format profile                           : High@L4
Format settings, CABAC                   : Yes
Format settings, ReFrames                : 3 frames
Codec ID                                 : V_MPEG4/ISO/AVC
Duration                                 : 1h 39mn
Bit rate                                 : 2 616 Kbps
Width                                    : 1 920 pixels
Height                                   : 1 080 pixels
Display aspect ratio                     : 16:9
Frame rate mode                          : Constant
Frame rate                               : 24.000 fps
Color space                              : YUV
Chroma subsampling                       : 4:2:0
Bit depth                                : 8 bits
Scan type                                : Progressive
Bits/(Pixel*Frame)                       : 0.053
Stream size                              : 1.82 GiB (80%)
Default                                  : Yes
Forced                                   : No

Audio
ID                                       : 2
Format                                   : E-AC-3
Format/Info                              : Audio Coding 3
Format settings, Endianness              : Big
Codec ID                                 : A_EAC3
Duration                                 : 1h 39mn
Bit rate mode                            : Constant
Bit rate                                 : 640 Kbps
Channel(s)                               : 6 channels
Channel positions                        : Front: L C R, Side: L R, LFE
Sampling rate                            : 48.0 KHz
Frame rate                               : 187.500 fps (256 spf)
Compression mode                         : Lossy
Stream size                              : 456 MiB (20%)
Title                                    : Turkish
Language                                 : Turkish
Default                                  : Yes
Forced                                   : No

Text
ID                                       : 3
Format                                   : UTF-8
Codec ID                                 : S_TEXT/UTF8
Codec ID/Info                            : UTF-8 Plain Text
Duration                                 : 5s 13ms
Bit rate                                 : 82 bps
Count of elements                        : 2
Stream size                              : 52.0 Bytes (0%)
Title                                    : FORCED
Language                                 : Turkish
Default                                  : Yes
Forced                                   : Yes

Similar torrents

  No similar torrents were found.

  User comments

No comments have been posted yet.


Post anonymous comment
:) :( :D :P :-) B) 8o :? 8) ;) :-* :-( :| O:-D :-@ :facepalm :o) brb :warn :help :bad :love :idea :bomb :!


CAPTCHA Image 

Anonymous comments have a moderation delay and show up after 15 minutes

  Sitefriends