Torrent details for "The.Noite.com.Danilo.Gentili.2021.05.03.720p.WEB.x264-Skylane77.mp4"    Log in to bookmark

Loading...
Loading...
Torrent details
Cover
Download
Torrent rating (0 rated)
Controls:
Category:
Language:
Portuguese Portuguese
Total Size:
519.83 MB
Info Hash:
80d98a84f9d1727231c79dfe89069e4460816336
Added By:
Added:  
04-05-2021 15:55
Views:
115
Health:
Seeds:
2
Leechers:
1
Completed:
2

Similar torrents

Name 
DL
Uploader
Size 
S/L 
Added
-
483.26 MB
82
[6/0]
11/05/21 15:51
Uploaded by skylane77:_trusted_uploader: Size 483.26 MBHealth [6/0]Added 11/05/21 15:51
-
397.20 MB
239
[5/0]
02/01/21 17:05
Uploaded by skylane77:_trusted_uploader: Size 397.20 MBHealth [5/0]Added 02/01/21 17:05
-
402.89 MB
142
[5/1]
30/04/21 16:39
Uploaded by skylane77:_trusted_uploader: Size 402.89 MBHealth [5/1]Added 30/04/21 16:39
-
440.01 MB
87
[4/0]
08/05/21 16:37
Uploaded by skylane77:_trusted_uploader: Size 440.01 MBHealth [4/0]Added 08/05/21 16:37
-
521.59 MB
283
[4/0]
11/03/21 16:16
Uploaded by skylane77:_trusted_uploader: Size 521.59 MBHealth [4/0]Added 11/03/21 16:16
-
470.82 MB
74
[3/0]
13/05/21 16:23
Uploaded by skylane77:_trusted_uploader: Size 470.82 MBHealth [3/0]Added 13/05/21 16:23
Genre:
Comedy, Talk-Show
Runtime:
60 min    -    Rating: 6.7
Director:
n/A
Plot:
The Noite with Danilo Gentili is a Brazilian television program produced and originally screened by SBT, which is presented by stand-up comedian Danilo Gentili. It is a late-night talk show, with the presence of humor and late night entertainment. The show started on March 10, 2014, and since then has been airing during five days of the week, around midnight.

Description
Thayse Teixeira

Entrevista com a influenciadora Thayse Teixeira, mais conhecida como a "Dona do Cariri"; Conselhos da Inês; musical com Ultraje a Rigor.



--
General
Format: MPEG-4
Format profile: Base Media
Codec ID: isom (isom/iso2/avc1/mp41)
File size: 520 MiB
Duration: 45 min 1 s
Overall bit rate mode: Variable
Overall bit rate: 1 614 kb/s
Writing application: Lavf58.45.100

Video
ID: 1
Format: AVC
Format/Info: Advanced Video Codec
Format profile: High@L4.1
Format settings: CABAC / 9 Ref Frames
Format settings, CABAC: Yes
Format settings, Reference frames: 9 frames
Codec ID: avc1
Codec ID/Info: Advanced Video Coding
Duration: 45 min 0 s
Bit rate: 1 477 kb/s
Width: 1 280 pixels
Height: 720 pixels
Display aspect ratio: 16:9
Frame rate mode: Variable
Frame rate: 29.970 (29970/1000) FPS
Minimum frame rate: 15.000 FPS
Maximum frame rate: 30.000 FPS
Color space: YUV
Chroma subsampling: 4:2:0
Bit depth: 8 bits
Scan type: Progressive
Bits/(Pixel*Frame): 0.053
Stream size: 476 MiB (91%)
Writing library: x264 core 160 r3011 cde9a93
Encoding settings: cabac=1 / ref=9 / deblock=1:0:0 / analyse=0x3:0x133 / me=umh / subme=10 / psy=1 / psy_rd=1.00:0.00 / mixed_ref=1 / me_range=24 / chroma_me=1 / trellis=2 / 8x8dct=1 / cqm=0 / deadzone=21,11 / fast_pskip=1 / chroma_qp_offset=-2 / threads=6 / lookahead_threads=1 / sliced_threads=0 / nr=0 / decimate=1 / interlaced=0 / bluray_compat=0 / constrained_intra=0 / bframes=8 / b_pyramid=2 / b_adapt=2 / b_bias=0 / direct=3 / weightb=1 / open_gop=0 / weightp=2 / keyint=250 / keyint_min=25 / scenecut=40 / intra_refresh=0 / rc_lookahead=60 / rc=crf / mbtree=1 / crf=25.0 / qcomp=0.60 / qpmin=0 / qpmax=69 / qpstep=4 / ip_ratio=1.40 / aq=1:1.00
Codec configuration box: avcC

Audio
ID: 2
Format: AAC LC
Format/Info: Advanced Audio Codec Low Complexity
Codec ID: mp4a-40-2
Duration: 45 min 1 s
Bit rate mode: Variable
Bit rate: 129 kb/s
Maximum bit rate: 145 kb/s
Channel(s): 2 channels
Channel layout: L R
Sampling rate: 48.0 kHz
Frame rate: 46.875 FPS (1024 SPF)
Compression mode: Lossy
Stream size: 41.4 MiB (8%)
Default: Yes
Alternate group: 1

  User comments

No comments have been posted yet.


Post anonymous comment
  • Comments need intelligible text (not only emojis or meaningless drivel).
  • No upload requests, visit the forum or message the uploader for this.
  • Use common sense and try to stay on topic.

  • :) :( :D :P :-) B) 8o :? 8) ;) :-* :-( :| O:-D Party Pirates Yuk Facepalm :-@ :o) Pacman Shit Alien eyes Ass Warn Help Bad Love Joystick Boom Eggplant Floppy TV Ghost Note Msg


    CAPTCHA Image 

    Anonymous comments have a moderation delay and show up after 15 minutes

      Sitefriends