Torrent details for "My Salinger Year (2020] [Hindi Dub] 720p WEB-DLRip Saicord"    Log in to bookmark

Loading...
Torrent details
Please be advised this upload has ads cut or watermarked into the video. click here for more info
Cover
Download
Torrent rating (0 rated)
Controls:
Category:
Language:
Hindi Hindi
Total Size:
1.58 GB
Info Hash:
4997a4fb6a552a6ef65eb4331a86e34e31c154ff
Added By:
Added:  
10-09-2021 15:28
Views:
217
Health:
Seeds:
1
Leechers:
0
Completed:
12

Similar torrents

Name 
DL
Uploader
Size 
S/L 
Added
-
796.58 MB
724
[15/4]
15/09/21 04:19
Uploaded by GalaxyRG:_trusted_uploader: Size 796.58 MBHealth [15/4]Added 15/09/21 04:19
-
3.97 GB
1,369
[9/1]
05/03/21 05:51
Uploaded by TGxMovies:_trusted_uploader: Size 3.97 GBHealth [9/1]Added 05/03/21 05:51
-
796.44 MB
7,810
[8/2]
05/03/21 07:08
Uploaded by GalaxyRG:_trusted_uploader: Size 796.44 MBHealth [8/2]Added 05/03/21 07:08
-
1.40 GB
434
[6/2]
15/09/21 04:24
Uploaded by GalaxyRG:_trusted_uploader: Size 1.40 GBHealth [6/2]Added 15/09/21 04:24
-
1.25 GB
2,288
[4/0]
20/10/20 15:28
Uploaded by TGxMovies:_trusted_uploader: Size 1.25 GBHealth [4/0]Added 20/10/20 15:28
-
10.29 GB
598
[3/3]
15/09/21 03:53
Uploaded by TGxMovies:_trusted_uploader: Size 10.29 GBHealth [3/3]Added 15/09/21 03:53
Title:
Genre:
Drama
Runtime:
101 min    -    Rating: 6
Plot:
In New York City's late nineties, a young aspiring writer lands a day-job at J.D. Salinger's literary agency. While her eccentric and old-fashioned boss tasks her to process Salinger's voluminous fan mail, she struggles to find her own voice.

Description
Image error

https://youtu.be/F7eQRjAKvTQ

Image error
Image error
Image error
Image error

Video
ID                          : 1
Format                      : AVC
Format/Info                 : Advanced Video Codec
Format profile              : Main@L3.1
Format settings             : CABAC / 1 Ref Frames
Format settings, CABAC      : Yes
Format settings, Reference  : 1 frame
Codec ID                    : avc1
Codec ID/Info               : Advanced Video Coding
Duration                    : 1 h 42 min
Bit rate mode               : Constant
Bit rate                    : 2 000 kb/s
Width                       : 1 280 pixels
Height                      : 694 pixels
Display aspect ratio        : 1.85:1
Frame rate mode             : Constant
Frame rate                  : 23.976 (24000/1001) FPS
Color space                 : YUV
Chroma subsampling          : 4:2:0
Bit depth                   : 8 bits
Scan type                   : Progressive
Bits/(Pixel*Frame)          : 0.094
Stream size                 : 1.44 GiB (91%)
Codec configuration box     : avcC

Audio
ID                          : 2
Format                      : AAC LC
Format/Info                 : Advanced Audio Codec Low Complexity
Codec ID                    : mp4a-40-2
Duration                    : 1 h 42 min
Source duration             : 1 h 42 min
Bit rate mode               : Constant
Bit rate                    : 192 kb/s
Channel(s)                  : 2 channels
Channel layout              : L R
Sampling rate               : 48.0 kHz
Frame rate                  : 46.875 FPS (1024 SPF)
Compression mode            : Lossy
Stream size                 : 142 MiB (9%)
Source stream size          : 142 MiB (9%)
Default                     : Yes
Alternate group             : 1
mdhd_Duration               : 6168725

  User comments

No comments have been posted yet.


Post anonymous comment
  • Comments need intelligible text (not only emojis or meaningless drivel).
  • No upload requests, visit the forum or message the uploader for this.
  • Use common sense and try to stay on topic.

  • :) :( :D :P :-) B) 8o :? 8) ;) :-* :-( :| O:-D Party Pirates Yuk Facepalm :-@ :o) Pacman Shit Alien eyes Ass Warn Help Bad Love Joystick Boom Eggplant Floppy TV Ghost Note Msg


    CAPTCHA Image 

    Anonymous comments have a moderation delay and show up after 15 minutes

      Sitefriends