Torrent details for "Into the Night / Season 1 (2020) Rus Fre (Rus Sub) WEB-DLRip ViruseProject"    Log in to bookmark

Loading...
Torrent details
Cover
Download
Torrent rating (0 rated)
Controls:
Category:
Language:
Russian Russian
Total Size:
3.22 GB
Info Hash:
fbb889a22374476b6fe1e2108c719a60ee6b965a
Added By:
viruse:_trial_uploader:  
Added:  
12-09-2021 18:03
Views:
226
Health:
Seeds:
1
Leechers:
0
Completed:
23

Similar torrents

Name 
DL
Uploader
Size 
S/L 
Added
1.12 GB
4,918
[75/8]
08/09/21 12:18
Uploaded by GalaxyTV:_trusted_uploader: Size 1.12 GBHealth [75/8]Added 08/09/21 12:18
975.73 MB
4,944
[57/18]
08/09/21 12:19
Uploaded by GalaxyTV:_trusted_uploader: Size 975.73 MBHealth [57/18]Added 08/09/21 12:19
-
975.58 MB
1,222
[10/5]
08/09/21 09:11
Uploaded by GalaxyTV:_trusted_uploader: Size 975.58 MBHealth [10/5]Added 08/09/21 09:11
-
2.33 GB
367
[8/2]
12/09/21 18:52
Uploaded by viruse:_trial_uploader: Size 2.33 GBHealth [8/2]Added 12/09/21 18:52
5.37 GB
710
[5/4]
08/09/21 08:12
Uploaded by TGxTV:_trusted_uploader: Size 5.37 GBHealth [5/4]Added 08/09/21 08:12
-
1.05 GB
1,257
[2/2]
08/09/21 09:10
Uploaded by GalaxyTV:_trusted_uploader: Size 1.05 GBHealth [2/2]Added 08/09/21 09:10
Title:
Genre:
Drama, Sci-Fi, Thriller
Runtime:
n/A    -    Rating: 7.4
Director:
n/A
Plot:
When radiation from the sun causes a global disaster on Earth, survivors on an overnight flight from Brussels race from city to city trying to stay ahead of the sun's rays by remaining in the cover of night.

Description
Image error

https://www.youtube.com/watch?v=ZGosoC7q_po

https://www.imdb.com/title/tt10919486

Image error
Image error
Image error
Image error

Video
ID                                       : 0
Format                                   : MPEG-4 Visual
Format profile                           : Advanced Simple@L5
Format settings                          : BVOP2
Format settings, BVOP                    : 2
Format settings, QPel                    : No
Format settings, GMC                     : No warppoints
Format settings, Matrix                  : Default (H.263)
Codec ID                                 : XVID
Codec ID/Hint                            : XviD
Duration                                 : 41 min 6 s
Bit rate                                 : 1 798 kb/s
Width                                    : 720 pixels
Height                                   : 400 pixels
Display aspect ratio                     : 16:9
Frame rate                               : 24.000 FPS
Color space                              : YUV
Chroma subsampling                       : 4:2:0
Bit depth                                : 8 bits
Scan type                                : Progressive
Compression mode                         : Lossy
Bits/(Pixel*Frame)                       : 0.260
Stream size                              : 529 MiB (87%)
Writing library                          : XviD 69

Audio #1
ID                                       : 1
Format                                   : MPEG Audio
Format version                           : Version 1
Format profile                           : Layer 3
Format settings                          : Joint stereo / MS Stereo
Codec ID                                 : 55
Codec ID/Hint                            : MP3
Duration                                 : 41 min 6 s
Bit rate mode                            : Variable
Bit rate                                 : 128 kb/s
Channel(s)                               : 2 channels
Sampling rate                            : 48.0 kHz
Frame rate                               : 41.667 FPS (1152 SPF)
Compression mode                         : Lossy
Stream size                              : 37.6 MiB (6%)
Alignment                                : Aligned on interleaves
Interleave, duration                     : 42  ms (1.00 video frame)
Interleave, preload duration             : 504  ms

Audio #2
ID                                       : 2
Format                                   : MPEG Audio
Format version                           : Version 1
Format profile                           : Layer 3
Format settings                          : Joint stereo / MS Stereo
Codec ID                                 : 55
Codec ID/Hint                            : MP3
Duration                                 : 41 min 6 s
Bit rate mode                            : Constant
Bit rate                                 : 128 kb/s
Channel(s)                               : 2 channels
Sampling rate                            : 48.0 kHz
Compression mode                         : Lossy
Stream size                              : 37.6 MiB (6%)
Alignment                                : Split across interleaves
Interleave, duration                     : 42  ms (1.00 video frame)
Interleave, preload duration             : 500  ms
Writing library                          : LAME3.100


  User comments

No comments have been posted yet.


Post anonymous comment
  • Comments need intelligible text (not only emojis or meaningless drivel).
  • No upload requests, visit the forum or message the uploader for this.
  • Use common sense and try to stay on topic.

  • :) :( :D :P :-) B) 8o :? 8) ;) :-* :-( :| O:-D Party Pirates Yuk Facepalm :-@ :o) Pacman Shit Alien eyes Ass Warn Help Bad Love Joystick Boom Eggplant Floppy TV Ghost Note Msg


    CAPTCHA Image 

    Anonymous comments have a moderation delay and show up after 15 minutes

      Sitefriends