Torrent details for "Into the Night / Season 2 (2021) Rus Fre (Rus Sub) 1080р WEB-DLRip ViruseProject"    Log in to bookmark

Loading...
Torrent details
Cover
Download
Torrent rating (0 rated)
Controls:
Category:
Language:
Russian Russian
Total Size:
3.33 GB
Info Hash:
90539192deb19308eb3aeb2b3a8b88e401dd2e2d
Added By:
viruse:_trial_uploader:  
Added:  
12-09-2021 18:52
Views:
286
Health:
Seeds:
1
Leechers:
0
Completed:
96

Similar torrents

Name 
DL
Uploader
Size 
S/L 
Added
1.12 GB
4,921
[75/8]
08/09/21 12:18
Uploaded by GalaxyTV:_trusted_uploader: Size 1.12 GBHealth [75/8]Added 08/09/21 12:18
975.73 MB
4,952
[57/18]
08/09/21 12:19
Uploaded by GalaxyTV:_trusted_uploader: Size 975.73 MBHealth [57/18]Added 08/09/21 12:19
-
975.58 MB
1,225
[10/5]
08/09/21 09:11
Uploaded by GalaxyTV:_trusted_uploader: Size 975.58 MBHealth [10/5]Added 08/09/21 09:11
-
2.33 GB
370
[8/2]
12/09/21 18:52
Uploaded by viruse:_trial_uploader: Size 2.33 GBHealth [8/2]Added 12/09/21 18:52
5.37 GB
712
[5/4]
08/09/21 08:12
Uploaded by TGxTV:_trusted_uploader: Size 5.37 GBHealth [5/4]Added 08/09/21 08:12
-
1.05 GB
1,260
[2/2]
08/09/21 09:10
Uploaded by GalaxyTV:_trusted_uploader: Size 1.05 GBHealth [2/2]Added 08/09/21 09:10
Title:
Genre:
Drama, Sci-Fi, Thriller
Runtime:
n/A    -    Rating: 7.4
Director:
n/A
Plot:
When radiation from the sun causes a global disaster on Earth, survivors on an overnight flight from Brussels race from city to city trying to stay ahead of the sun's rays by remaining in the cover of night.

Description
Image error

https://www.youtube.com/watch?v=ZGosoC7q_po

https://www.imdb.com/title/tt10919486

Image error
Image error
Image error
Image error

Video
ID                                       : 1
Format                                   : AVC
Format/Info                              : Advanced Video Codec
Format profile                           : High@L4.2
Format settings                          : CABAC / 4 Ref Frames
Format settings, CABAC                   : Yes
Format settings, Reference frames        : 4 frames
Codec ID                                 : V_MPEG4/ISO/AVC
Duration                                 : 35 min 30 s
Bit rate                                 : 1 937 kb/s
Width                                    : 1 920 pixels
Height                                   : 960 pixels
Display aspect ratio                     : 2.000
Frame rate mode                          : Constant
Frame rate                               : 24.000 FPS
Color space                              : YUV
Chroma subsampling                       : 4:2:0
Bit depth                                : 8 bits
Scan type                                : Progressive
Bits/(Pixel*Frame)                       : 0.044
Stream size                              : 492 MiB (83%)
Language                                 : English
Default                                  : Yes
Forced                                   : No
Color range                              : Limited
Color primaries                          : BT.709
Transfer characteristics                 : BT.709
Matrix coefficients                      : BT.709

Audio #1
ID                                       : 2
Format                                   : AC-3
Format/Info                              : Audio Coding 3
Commercial name                          : Dolby Digital
Codec ID                                 : A_AC3
Duration                                 : 35 min 31 s
Bit rate mode                            : Constant
Bit rate                                 : 192 kb/s
Channel(s)                               : 2 channels
Channel layout                           : L R
Sampling rate                            : 48.0 kHz
Frame rate                               : 31.250 FPS (1536 SPF)
Compression mode                         : Lossy
Stream size                              : 48.8 MiB (8%)
Title                                    : ViruseProject
Language                                 : Russian
Service kind                             : Complete Main
Default                                  : Yes
Forced                                   : No

Audio #2
ID                                       : 3
Format                                   : AAC LC
Format/Info                              : Advanced Audio Codec Low Complexity
Codec ID                                 : A_AAC-2
Duration                                 : 35 min 30 s
Bit rate                                 : 192 kb/s
Channel(s)                               : 2 channels
Channel layout                           : L R
Sampling rate                            : 48.0 kHz
Frame rate                               : 46.875 FPS (1024 SPF)
Compression mode                         : Lossy
Stream size                              : 48.1 MiB (8%)
Language                                 : French
Default                                  : No
Forced                                   : No

Text
ID                                       : 4
Format                                   : UTF-8
Codec ID                                 : S_TEXT/UTF8
Codec ID/Info                            : UTF-8 Plain Text
Duration                                 : 34 min 9 s
Bit rate                                 : 89 b/s
Count of elements                        : 508
Stream size                              : 22.5 KiB (0%)
Language                                 : Russian
Default                                  : No
Forced                                   : No


  User comments

No comments have been posted yet.


Post anonymous comment
  • Comments need intelligible text (not only emojis or meaningless drivel).
  • No upload requests, visit the forum or message the uploader for this.
  • Use common sense and try to stay on topic.

  • :) :( :D :P :-) B) 8o :? 8) ;) :-* :-( :| O:-D Party Pirates Yuk Facepalm :-@ :o) Pacman Shit Alien eyes Ass Warn Help Bad Love Joystick Boom Eggplant Floppy TV Ghost Note Msg


    CAPTCHA Image 

    Anonymous comments have a moderation delay and show up after 15 minutes

      Sitefriends