Torrent details for "Only.Murders.In.The.Building.S01E05.1080p.HULU.10bit.DDP.5.1.x265.[HashMiner]"    Log in to bookmark

Loading...
Torrent details
Cover
Download
Torrent rating (0 rated)
Controls:
Category:
Language:
English English
Total Size:
423.67 MB
Info Hash:
26204591ce3ba874cd90bd476de770df06c2382a
Added By:
Added:  
17-09-2021 19:10
Views:
339
Health:
Seeds:
7
Leechers:
4
Completed:
664

Similar torrents

Name 
DL
Uploader
Size 
S/L 
Added
-
196.99 MB
6,120
[135/24]
14/09/21 05:23
Uploaded by TGxTV:_trusted_uploader: Size 196.99 MBHealth [135/24]Added 14/09/21 05:23
-
169.93 MB
1,290
[32/16]
14/09/21 06:45
Uploaded by TGxTV:_trusted_uploader: Size 169.93 MBHealth [32/16]Added 14/09/21 06:45
-
1.84 GB
432
[27/2]
14/09/21 06:41
Uploaded by indexFroggy:_trusted_uploader: Size 1.84 GBHealth [27/2]Added 14/09/21 06:41
-
1.04 GB
517
[24/4]
14/09/21 05:12
Uploaded by TGxTV:_trusted_uploader: Size 1.04 GBHealth [24/4]Added 14/09/21 05:12
-
1.08 GB
273
[17/1]
22/09/21 10:06
Uploaded by ppb1:_trusted_uploader: Size 1.08 GBHealth [17/1]Added 22/09/21 10:06
-
514.82 MB
465
[4/1]
14/09/21 05:11
Uploaded by TGxTV:_trusted_uploader: Size 514.82 MBHealth [4/1]Added 14/09/21 05:11
Genre:
Comedy, Crime, Drama, Mystery, Thriller
Runtime:
n/A    -    Rating: 9.4
Director:
n/A
Plot:
Three strangers who share an obsession with true crime suddenly find themselves caught up in one.

Description
Image error

Encoded by HashMiner!

1337x  |  TorrentGalaxy


Audio Language: English.

Subtitles Included: English, Spanish.


 ══════════════════════════════════════════════════════════════════════════


Image error

Image error

Image error

Genre: Comedy.
Stars : Steve Martin, Martin Short, Selena Gomez, Aaron Dominguez, Amy Ryan      
Plot:Only Murders in the Building follows three New Yorkers who find they have a mutual interest in solving true crime – but limit their amateur sleuthing to only murders in their building.


 ══════════════════════════════════════════════════════════════════════════

Image error


Image error

Image error



Image error




══════════════════════════════════════════════════════════════════════════

Image error

Quote:

[code]General
Unique ID                      : 119453592345666859284979769709997507947 (0x59DDECCFD5D45EE25B4EC8BB6DE6C56B)
Complete name                  : Only.Murders.In.The.Building.S01E05.1080p.HULU.10bit.DDP.5.1.x265.[HashMiner].mkv
Format                         : Matroska
Format version                 : Version 4 / Version 2
File size                      : 424 MiB
Duration                       : 26 min 8 s
Overall bit rate               : 2 266 kb/s
Writing library                : Lavf58.76.100
ErrorDetectionType             : Per level 1
Video
ID                             : 1
Format                         : HEVC
Format/Info                    : High Efficiency Video Coding
Format profile                 : Main 10@L4@Main
Codec ID                       : V_MPEGH/ISO/HEVC
Duration                       : 26 min 8 s
Bit rate                       : 1 709 kb/s
Width                          : 1 920 pixels
Height                         : 1 080 pixels
Display aspect ratio           : 16:9
Frame rate mode                : Constant
Frame rate                     : 23.976 (24000/1001) FPS
Color space                    : YUV
Chroma subsampling             : 4:2:0
Bit depth                      : 10 bits
Bits/(Pixel*Frame)             : 0.034
Stream size                    : 320 MiB (75%)
Writing library                : x265 3.5+1-f0c1022b6:[Windows][clang 12.0.0][64 bit] 10bit
Encoding settings              : cpuid=1111039 / frame-threads=3 / numa-pools=12 / wpp / no-pmode / no-pme / no-psnr / no-ssim / log-level=2 / input-csp=1 / input-res=1920x1080 / interlace=0 / total-frames=0 / level-idc=0 / high-tier=1 / uhd-bd=0 / ref=1 / no-allow-non-conformance / no-repeat-headers / annexb / no-aud / no-hrd / info / hash=0 / no-temporal-layers / open-gop / min-keyint=24 / keyint=240 / gop-lookahead=0 / bframes=3 / b-adapt=0 / b-pyramid / bframe-bias=0 / rc-lookahead=5 / lookahead-slices=6 / scenecut=0 / hist-scenecut=0 / radl=0 / no-splice / no-intra-refresh / ctu=32 / min-cu-size=16 / no-rect / no-amp / max-tu-size=32 / tu-inter-depth=1 / tu-intra-depth=1 / limit-tu=0 / rdoq-level=0 / dynamic-rd=0.00 / no-ssim-rd / no-signhide / no-tskip / nr-intra=0 / nr-inter=0 / no-constrained-intra / strong-intra-smoothing / max-merge=2 / limit-refs=0 / no-limit-modes / me=0 / subme=0 / merange=57 / temporal-mvp / no-frame-dup / no-hme / no-weightp / no-weightb / no-analyze-src-pics / deblock=0:0 / no-sao / no-sao-non-deblock / rd=2 / selective-sao=0 / early-skip / rskip / fast-intra / no-tskip-fast / no-cu-lossless / no-b-intra / no-splitrd-skip / rdpenalty=0 / psy-rd=2.00 / psy-rdoq=0.00 / no-rd-refine / no-lossless / cbqpoffs=0 / crqpoffs=0 / rc=crf / crf=20.0 / qcomp=0.60 / qpstep=4 / stats-write=0 / stats-read=0 / ipratio=1.40 / pbratio=1.30 / aq-mode=1 / aq-strength=0.00 / cutree / zone-count=0 / no-strict-cbr / qg-size=32 / no-rc-grain / qpmax=69 / qpmin=0 / no-const-vbv / sar=1 / overscan=0 / videoformat=5 / range=0 / colorprim=1 / transfer=1 / colormatrix=1 / chromaloc=0 / display-window=0 / cll=0,0 / min-luma=0 / max-luma=1023 / log2-max-poc-lsb=8 / vui-timing-info / vui-hrd-info / slices=1 / no-opt-qp-pps / no-opt-ref-list-length-pps / no-multi-pass-opt-rps / scenecut-bias=0.05 / hist-threshold=0.03 / no-opt-cu-delta-qp / no-aq-motion / no-hdr10 / no-hdr10-opt / no-dhdr10-opt / no-idr-recovery-sei / analysis-reuse-level=0 / analysis-save-reuse-level=0 / analysis-load-reuse-level=0 / scale-factor=0 / refine-intra=0 / refine-inter=0 / refine-mv=1 / refine-ctu-distortion=0 / no-limit-sao / ctu-info=0 / no-lowpass-dct / refine-analysis-type=0 / copy-pic=1 / max-ausize-factor=1.0 / no-dynamic-refine / no-single-sei / no-hevc-aq / no-svt / no-field / qp-adaptation-range=1.00 / scenecut-aware-qp=0conformance-window-offsets / right=0 / bottom=0 / decoder-max-rate=0 / no-vbv-live-multi-pass
Default                        : Yes
Forced                         : No
Color range                    : Limited
Color primaries                : BT.709
Transfer characteristics       : BT.709
Matrix coefficients            : BT.709
DURATION                       : 00:26:08.239000000
Audio
ID                             : 2
Format                         : E-AC-3
Format/Info                    : Enhanced Audio Coding 3
Format settings, Endianness    : Big
Codec ID                       : A_EAC3
Duration                       : 26 min 8 s
Bit rate mode                  : Constant
Bit rate                       : 512 kb/s
Channel(s)                     : 6 channels
Channel positions              : Front: L C R, Side: L R, LFE
Sampling rate                  : 48.0 kHz
Frame rate                     : 187.500 FPS (256 SPF)
Compression mode               : Lossy
Delay relative to video        : -5 ms
Stream size                    : 95.7 MiB (23%)
Title                          : Surround
Language                       : English
Service kind                   : Complete Main
Default                        : Yes
Forced                         : No
DURATION                       : 00:26:08.352000000
Text #1
ID                             : 3
Format                         : ASS
Codec ID                       : S_TEXT/ASS
Codec ID/Info                  : Advanced Sub Station Alpha
Compression mode               : Lossless
Title                          : English
Language                       : English
Default                        : No
Forced                         : No
DURATION                       : 00:26:04.236000000
Text #2
ID                             : 4
Format                         : ASS
Codec ID                       : S_TEXT/ASS
Codec ID/Info                  : Advanced Sub Station Alpha
Compression mode               : Lossless
Title                          : Spanish
Language                       : Spanish
Default                        : No
Forced                         : No
DURATION                       : 00:26:04.236000000
[/code]
 ══════════════════════════════════════════════════════════════════════════

Image error


If you like my Encodes, Please consider donating


Bitcoin: 13Gm1RLtiLspyL7NrXZmeVKCXHTC5Eih1h

Ethereum: 0x1bA096179a4E3f9d6Ce3F89Ba7b9Ff94c325AdE8

Monero:
469v2aUdtVuH8VAU9fuPkNHA2gdkkST9p8QEZ1NyBCX2ekH47R6cpb77i2j7zG989v34GiZgW8eqcDnTTAzFmexE2cPRCzA

Image error

  User comments

No comments have been posted yet.


Post anonymous comment
  • Comments need intelligible text (not only emojis or meaningless drivel).
  • No upload requests, visit the forum or message the uploader for this.
  • Use common sense and try to stay on topic.

  • :) :( :D :P :-) B) 8o :? 8) ;) :-* :-( :| O:-D Party Pirates Yuk Facepalm :-@ :o) Pacman Shit Alien eyes Ass Warn Help Bad Love Joystick Boom Eggplant Floppy TV Ghost Note Msg


    CAPTCHA Image 

    Anonymous comments have a moderation delay and show up after 15 minutes

      Sitefriends