Torrent details for "Prey (2021) [Hindi Dub] 1080р WEB-DLRip Saicord"    Log in to bookmark

Loading...
Torrent details
Please be advised this upload has ads cut or watermarked into the video. click here for more info
Cover
Download
Torrent rating (0 rated)
Controls:
Category:
Language:
Hindi Hindi
Total Size:
2.60 GB
Info Hash:
624233ace69883e79128e31b6764a8e19a08803b
Added By:
Added:  
19-09-2021 08:38
Views:
195
Health:
Seeds:
2
Leechers:
0
Completed:
25

Similar torrents

Name 
DL
Uploader
Size 
S/L 
Added
-
1.31 GB
5,504
[98/10]
05/03/20 13:58
Uploaded by TGxMovies:_trusted_uploader: Size 1.31 GBHealth [98/10]Added 05/03/20 13:58
-
898.10 MB
1,442
[45/10]
14/08/21 01:04
Uploaded by B0NE:_trusted_uploader::_sitefriend: Size 898.10 MBHealth [45/10]Added 14/08/21 01:04
-
2.73 GB
866
[23/9]
10/09/21 08:08
Uploaded by TGxMovies:_trusted_uploader: Size 2.73 GBHealth [23/9]Added 10/09/21 08:08
-
1.00 GB
3,798
[23/1]
05/03/20 20:56
Uploaded by juggs:_trusted_user::_sitefriend: Size 1.00 GBHealth [23/1]Added 05/03/20 20:56
798.14 MB
17,060
[18/2]
10/09/21 08:51
Uploaded by GalaxyRG:_trusted_uploader: Size 798.14 MBHealth [18/2]Added 10/09/21 08:51
-
1.11 MB
623
[16/0]
14/04/21 13:24
Uploaded by zakareya:_trusted_uploader::_sitefriend: Size 1.11 MBHealth [16/0]Added 14/04/21 13:24
Title:
Prey (2021)
Genre:
Adventure, Drama, Thriller
Runtime:
87 min    -    Rating: n/A
Director:
Plot:
On his bachelor party weekend, Roman, his brother Albert and their friends go on a hiking trip into the wild. When the group hear gunshots nearby, they attribute them to hunters in the woods. However, they soon find themselves in a desperate bid for survival when they realize that they have fallen prey to a mysterious shooter.

Description
Image error

https://youtu.be/HzpLBkLb4ak

Image error
Image error
Image error
Image error

Video
ID                          : 1
Format                      : AVC
Format/Info                 : Advanced Video Codec
Format profile              : Main@L4
Format settings             : CABAC / 1 Ref Frames
Format settings, CABAC      : Yes
Format settings, Reference  : 1 frame
Codec ID                    : avc1
Codec ID/Info               : Advanced Video Coding
Duration                    : 1 h 28 min
Bit rate mode               : Constant
Bit rate                    : 4 000 kb/s
Width                       : 1 920 pixels
Height                      : 1 080 pixels
Display aspect ratio        : 16:9
Frame rate mode             : Constant
Frame rate                  : 24.000 FPS
Color space                 : YUV
Chroma subsampling          : 4:2:0
Bit depth                   : 8 bits
Scan type                   : Progressive
Bits/(Pixel*Frame)          : 0.080
Stream size                 : 2.48 GiB (95%)
Codec configuration box     : avcC

Audio
ID                          : 2
Format                      : AAC LC
Format/Info                 : Advanced Audio Codec Low Complexity
Codec ID                    : mp4a-40-2
Duration                    : 1 h 28 min
Source duration             : 1 h 28 min
Bit rate mode               : Variable
Bit rate                    : 192 kb/s / 192 kb/s
Channel(s)                  : 2 channels
Channel layout              : L R
Sampling rate               : 48.0 kHz
Frame rate                  : 46.875 FPS (1024 SPF)
Compression mode            : Lossy
Stream size                 : 121 MiB (5%)
Source stream size          : 121 MiB (5%)
Default                     : Yes
Alternate group             : 1
mdhd_Duration               : 5332331

  User comments

No comments have been posted yet.


Post anonymous comment
  • Comments need intelligible text (not only emojis or meaningless drivel).
  • No upload requests, visit the forum or message the uploader for this.
  • Use common sense and try to stay on topic.

  • :) :( :D :P :-) B) 8o :? 8) ;) :-* :-( :| O:-D Party Pirates Yuk Facepalm :-@ :o) Pacman Shit Alien eyes Ass Warn Help Bad Love Joystick Boom Eggplant Floppy TV Ghost Note Msg


    CAPTCHA Image 

    Anonymous comments have a moderation delay and show up after 15 minutes

      Sitefriends