Torrent details for "Dhamaka.2021.1080p.NF.10bit.DDP.5.1.x265.[HashMiner]"    Log in to bookmark

Loading...
Torrent details
Cover
Download
Torrent rating (0 rated)
Controls:
Category:
Language:
Hindi Hindi
Total Size:
1.51 GB
Info Hash:
723d668da40cf1a61cd2a3af22c1d9dc30b145c2
Added By:
Added:  
19-11-2021 09:24
Views:
3,435
Health:
Seeds:
373
Leechers:
34
Completed:
8,125

Similar torrents

Name 
DL
Uploader
Size 
S/L 
Added
-
1.27 GB
2,445
[144/19]
19/11/21 16:36
Uploaded by LOKiHD:_trusted_uploader::_sitefriend: Size 1.27 GBHealth [144/19]Added 19/11/21 16:36
-
1.05 GB
650
[97/38]
19/11/21 12:40
Uploaded by Suryadipta:_verified_uploader: Size 1.05 GBHealth [97/38]Added 19/11/21 12:40
-
4.56 GB
41
[3/3]
02/12/21 19:06
Uploaded by Torbrazil:_trusted_uploader: Size 4.56 GBHealth [3/3]Added 02/12/21 19:06
-
1.65 GB
44
[2/5]
02/12/21 19:07
Uploaded by Torbrazil:_trusted_uploader: Size 1.65 GBHealth [2/5]Added 02/12/21 19:07
-
1.15 GB
78
[2/0]
02/12/21 19:08
Uploaded by Torbrazil:_trusted_uploader: Size 1.15 GBHealth [2/0]Added 02/12/21 19:08
-
802.52 MB
954
[0/0]
01/08/19 12:21
Uploaded by ittorrent Size 802.52 MBHealth [0/0]Added 01/08/19 12:21
Title:
Dhamaka (2021)
Genre:
Action, Drama, Thriller
Runtime:
103 min    -    Rating: 9.5
Director:
Plot:
Reassigned from TV to radio, a frustrated anchor sees both danger and opportunity when he receives threatening calls on the air.

Description
Image error

Encoded by HashMiner!

1337x  |  TorrentGalaxy


 ══════════════════════════════════════════════════════════════════════════
Audio Language: HINDI.
Subtitles Included: English, English, Arabic, Chinese, Chinese, Croatian, Czech, Danish, Dutch, Finnish, French, German, Greek, Hebrew, Hungarian, Indonesian, Italian, Japanese, Korean, Malay, Norwegian, Bokmal, Polish, Portuguese, Portuguese, Romanian, Russian, Spanish, Spanish, Swedish, Thai.
.

 ══════════════════════════════════════════════════════════════════════════

Image error

Image error

Image error
Genre: Action, Drama, Thriller.
Stars : Amruta Subhash, Vikas Kumar, Vishwajeet Pradhan.
Plot : Reassigned from TV to radio, a frustrated anchor sees both danger and opportunity when he receives threatening calls on the air.

 ══════════════════════════════════════════════════════════════════════════

Image error
Image errorImage errorImage error


══════════════════════════════════════════════════════════════════════════

Image error



Quote:

[code]General
Unique ID                      : 85658922739523458713622020745066918899 (0x40714EF552277C6D3AE721E8136733F3)
Complete name                  : Dhamaka.2021.1080p.NF.10bit.DDP.5.1.x265.[HashMiner].mkv
Format                         : Matroska
Format version                 : Version 4 / Version 2
File size                      : 1.51 GiB
Duration                       : 1 h 44 min
Overall bit rate               : 2 075 kb/s
Writing library                : Lavf58.76.100
ErrorDetectionType             : Per level 1
Video
ID                             : 1
Format                         : HEVC
Format/Info                    : High Efficiency Video Coding
Format profile                 : Main 10@L4@Main
Codec ID                       : V_MPEGH/ISO/HEVC
Duration                       : 1 h 44 min
Bit rate                       : 1 521 kb/s
Width                          : 1 920 pixels
Height                         : 804 pixels
Display aspect ratio           : 2.40:1
Frame rate mode                : Constant
Frame rate                     : 24.000 FPS
Color space                    : YUV
Chroma subsampling             : 4:2:0
Bit depth                      : 10 bits
Bits/(Pixel*Frame)             : 0.041
Stream size                    : 1.11 GiB (73%)
Title                          : Encoded by HashMiner!
Writing library                : x265 3.5+1-f0c1022b6:[Windows][clang 12.0.0][64 bit] 10bit
Encoding settings              : cpuid=1111039 / frame-threads=3 / numa-pools=12 / wpp / no-pmode / no-pme / no-psnr / no-ssim / log-level=2 / input-csp=1 / input-res=1920x804 / interlace=0 / total-frames=0 / level-idc=0 / high-tier=1 / uhd-bd=0 / ref=1 / no-allow-non-conformance / no-repeat-headers / annexb / no-aud / no-hrd / info / hash=0 / no-temporal-layers / open-gop / min-keyint=24 / keyint=240 / gop-lookahead=0 / bframes=3 / b-adapt=0 / b-pyramid / bframe-bias=0 / rc-lookahead=5 / lookahead-slices=5 / scenecut=0 / hist-scenecut=0 / radl=0 / no-splice / no-intra-refresh / ctu=32 / min-cu-size=16 / no-rect / no-amp / max-tu-size=32 / tu-inter-depth=1 / tu-intra-depth=1 / limit-tu=0 / rdoq-level=0 / dynamic-rd=0.00 / no-ssim-rd / no-signhide / no-tskip / nr-intra=0 / nr-inter=0 / no-constrained-intra / strong-intra-smoothing / max-merge=2 / limit-refs=0 / no-limit-modes / me=0 / subme=0 / merange=57 / temporal-mvp / no-frame-dup / no-hme / no-weightp / no-weightb / no-analyze-src-pics / deblock=0:0 / no-sao / no-sao-non-deblock / rd=2 / selective-sao=0 / early-skip / rskip / fast-intra / no-tskip-fast / no-cu-lossless / no-b-intra / no-splitrd-skip / rdpenalty=0 / psy-rd=2.00 / psy-rdoq=0.00 / no-rd-refine / no-lossless / cbqpoffs=0 / crqpoffs=0 / rc=crf / crf=20.0 / qcomp=0.60 / qpstep=4 / stats-write=0 / stats-read=0 / ipratio=1.40 / pbratio=1.30 / aq-mode=1 / aq-strength=0.00 / cutree / zone-count=0 / no-strict-cbr / qg-size=32 / no-rc-grain / qpmax=69 / qpmin=0 / no-const-vbv / sar=1 / overscan=0 / videoformat=5 / range=0 / colorprim=1 / transfer=1 / colormatrix=1 / chromaloc=0 / display-window=0 / cll=0,0 / min-luma=0 / max-luma=1023 / log2-max-poc-lsb=8 / vui-timing-info / vui-hrd-info / slices=1 / no-opt-qp-pps / no-opt-ref-list-length-pps / no-multi-pass-opt-rps / scenecut-bias=0.05 / hist-threshold=0.03 / no-opt-cu-delta-qp / no-aq-motion / no-hdr10 / no-hdr10-opt / no-dhdr10-opt / no-idr-recovery-sei / analysis-reuse-level=0 / analysis-save-reuse-level=0 / analysis-load-reuse-level=0 / scale-factor=0 / refine-intra=0 / refine-inter=0 / refine-mv=1 / refine-ctu-distortion=0 / no-limit-sao / ctu-info=0 / no-lowpass-dct / refine-analysis-type=0 / copy-pic=1 / max-ausize-factor=1.0 / no-dynamic-refine / no-single-sei / no-hevc-aq / no-svt / no-field / qp-adaptation-range=1.00 / scenecut-aware-qp=0conformance-window-offsets / right=0 / bottom=0 / decoder-max-rate=0 / no-vbv-live-multi-pass
Default                        : Yes
Forced                         : No
Color range                    : Limited
Color primaries                : BT.709
Transfer characteristics       : BT.709
Matrix coefficients            : BT.709
Audio
ID                             : 2
Format                         : E-AC-3
Format/Info                    : Enhanced Audio Coding 3
Format settings, Endianness    : Big
Codec ID                       : A_EAC3
Duration                       : 1 h 44 min
Bit rate mode                  : Constant
Bit rate                       : 512 kb/s
Channel(s)                     : 6 channels
Channel positions              : Front: L C R, Side: L R, LFE
Sampling rate                  : 48.0 kHz
Frame rate                     : 187.500 FPS (256 SPF)
Compression mode               : Lossy
Delay relative to video        : -5 ms
Stream size                    : 382 MiB (25%)
Language                       : Hindi
Service kind                   : Complete Main
Default                        : Yes
Forced                         : No
Text #1
ID                             : 3
Format                         : ASS
Codec ID                       : S_TEXT/ASS
Codec ID/Info                  : Advanced Sub Station Alpha
Compression mode               : Lossless
Language                       : English
Default                        : No
Forced                         : No
Text #2
ID                             : 4
Format                         : ASS
Codec ID                       : S_TEXT/ASS
Codec ID/Info                  : Advanced Sub Station Alpha
Compression mode               : Lossless
Title                          : Hindi
Language                       : Hindi
Default                        : No
Forced                         : No
Text #3
ID                             : 5
Format                         : ASS
Codec ID                       : S_TEXT/ASS
Codec ID/Info                  : Advanced Sub Station Alpha
Compression mode               : Lossless
Title                          : Forced
Language                       : Hindi
Default                        : No
Forced                         : No
Text #4
ID                             : 6
Format                         : ASS
Codec ID                       : S_TEXT/ASS
Codec ID/Info                  : Advanced Sub Station Alpha
Compression mode               : Lossless
Title                          : Malay
Default                        : No
Forced                         : No

[/code]
 ══════════════════════════════════════════════════════════════════════════

Image error

If you like my Encodes, Please consider donating

Bitcoin: 13Gm1RLtiLspyL7NrXZmeVKCXHTC5Eih1h

Ethereum: 0x1bA096179a4E3f9d6Ce3F89Ba7b9Ff94c325AdE8

Monero:
469v2aUdtVuH8VAU9fuPkNHA2gdkkST9p8QEZ1NyBCX2ekH47R6cpb77i2j7zG989v34GiZgW8eqcDnTTAzFmexE2cPRCzA

Image error

  User comments

Guest-2080
Posted: 2021-11-20 09:07:39 (2Wks ago) Report
Guest user
avatar
Reppoints: -100
thank you very much


Posted: 2021-11-20 13:23:24 (2Wks ago) Report

avatar
Reppoints: 29
thanks for downloading! :_:)


Post anonymous comment
  • Comments need intelligible text (not only emojis or meaningless drivel).
  • No upload requests, visit the forum or message the uploader for this.
  • Use common sense and try to stay on topic.

  • :) :( :D :P :-) B) 8o :? 8) ;) :-* :-( :| O:-D Party Pirates Yuk Facepalm :-@ :o) Pacman Shit Alien eyes Ass Warn Help Bad Love Joystick Boom Eggplant Floppy TV Ghost Note Msg


    CAPTCHA Image 

    Anonymous comments have a moderation delay and show up after 15 minutes

      Sitefriends