Torrent details for "Beavis And Butt-Head Do The Universe (2022) 1080p 5.1 - 2.0 x264 Phun Psyz"    Log in to bookmark

Torrent details
Cover
Download
Torrent rating (1 rated)
Controls:
Category:
Language:
English English
Total Size:
1.62 GB
Info Hash:
c50086c0d043d909d2a4d50e48fc114b4fe75a08
Added By:
Added:  
23-06-2022 14:21
Stats:
| Update
Genres:



Thanks for rating :
dwarren61:_trusted_user::_male: (5),

Similar torrents

Name 
DL
Uploader
Size 
S/L 
Added
-
1.38 GB
1,763
[443/68]
23/06/22 08:00
Uploaded by TGxMovies:_trusted_uploader: Size 1.38 GBHealth [443/68]Added 23/06/22 08:00
1.40 GB
2,501
[168/16]
23/06/22 07:49
Uploaded by GalaxyRG:_trusted_uploader: Size 1.40 GBHealth [168/16]Added 23/06/22 07:49
-
6.12 GB
1,139
[132/10]
23/06/22 07:53
Uploaded by TGxMovies:_trusted_uploader: Size 6.12 GBHealth [132/10]Added 23/06/22 07:53
797.15 MB
19,044
[101/10]
23/06/22 07:49
Uploaded by GalaxyRG:_trusted_uploader: Size 797.15 MBHealth [101/10]Added 23/06/22 07:49
-
1.03 GB
666
[13/4]
24/06/22 03:13
Uploaded by B0NE:_trusted_uploader::_sitefriend: Size 1.03 GBHealth [13/4]Added 24/06/22 03:13
-
1.71 GB
276
[11/3]
17/07/22 02:16
Uploaded by yerisan710:_trusted_uploader::_sitefriend: Size 1.71 GBHealth [11/3]Added 17/07/22 02:16
Genre:
Animation, Comedy
Runtime:
n/A    -    Rating: n/A
Director:
Plot:
After a "creative" judge sentences them to space camp, a black hole sends our adolescent heroes 24 years into the modern future where the duo misuse Iphones, embark on a quest to score, and become targets of the Deep State.

Description
www.imdb.com/title/tt14145426/

After a "creative" judge sentences them to space camp, a black hole sends our adolescent heroes 24 years into the modern future where the duo misuse Iphones, embark on a quest to score, and become targets of the Deep State.

Source: Web

Image error

Format                      : MPEG-4
Format profile              : Base Media / Version 2
Codec ID                    : mp42 (mp42/iso2/avc1/mp41)
File size                   : 1.62 GiB
Duration                    : 1 h 26 min
Overall bit rate mode       : Variable
Overall bit rate            : 2 699 kb/s

Video
ID                          : 1
Format                      : AVC
Format/Info                 : Advanced Video Codec
Format profile              : High@L4.1
Format settings             : CABAC / 1 Ref Frames
Format settings, CABAC      : Yes
Format settings, Reference  : 1 frame
Codec ID                    : avc1
Codec ID/Info               : Advanced Video Coding
Duration                    : 1 h 26 min
Bit rate                    : 2 212 kb/s
Width                       : 1 920 pixels
Height                      : 1 080 pixels
Display aspect ratio        : 16:9
Frame rate mode             : Constant
Frame rate                  : 24.000 FPS
Color space                 : YUV
Chroma subsampling          : 4:2:0
Bit depth                   : 8 bits
Scan type                   : Progressive
Bits/(Pixel*Frame)          : 0.044
Stream size                 : 1.33 GiB (82%)
Color primaries             : BT.709
Transfer characteristics    : BT.709
Matrix coefficients         : BT.709

Audio #1
ID                          : 2
Format                      : AC-3
Format/Info                 : Audio Coding 3
Commercial name             : Dolby Digital
Codec ID                    : ac-3
Duration                    : 1 h 26 min
Bit rate mode               : Constant
Bit rate                    : 320 kb/s
Channel(s)                  : 6 channels
Channel layout              : L R C LFE Ls Rs
Sampling rate               : 48.0 kHz
Frame rate                  : 31.250 FPS (1536 SPF)
Compression mode            : Lossy
Stream size                 : 197 MiB (12%)
Title                       : Surround
Language                    : English

Audio #2
ID                          : 3
Format                      : AAC LC
Format/Info                 : Advanced Audio Codec Low Complexity
Codec ID                    : mp4a-40-2
Duration                    : 1 h 26 min
Bit rate mode               : Constant
Bit rate                    : 160 kb/s
Channel(s)                  : 2 channels
Channel layout              : L R
Sampling rate               : 48.0 kHz
Frame rate                  : 46.875 FPS (1024 SPF)
Compression mode            : Lossy
Stream size                 : 98.7 MiB (6%)
Title                       : Stereo
Language                    : English

Text
Language                    : English
Default                     : Yes
Forced                      : No

  User comments    Sort newest first

No comments have been posted yet.



Post anonymous comment
  • Comments need intelligible text (not only emojis or meaningless drivel).
  • No upload requests, visit the forum or message the uploader for this.
  • Use common sense and try to stay on topic.

  • :) :( :D :P :-) B) 8o :? 8) ;) :-* :-( :| O:-D Party Pirates Yuk Facepalm :-@ :o) Pacman Shit Alien eyes Ass Warn Help Bad Love Joystick Boom Eggplant Floppy TV Ghost Note Msg


    CAPTCHA Image 

    Anonymous comments have a moderation delay and show up after 15 minutes



      Sitefriends