visiting IP: 3.238.125.76
Are you torrenting safe?
more info

  Torrent details for "Question Time 2022-06-23 (1280x720p HD, 50fps, soft Eng subs) "    Log in to bookmark

Torrent details
Cover
Download
Torrent rating (0 rated)
Controls:
Category:
Language:
English English
Total Size:
2.11 GB
Info Hash:
46e5441a380ebe48493ae665427b1104fcf62f2d
Added By:
Added:  
24-06-2022 00:41
Views:
60
Health:
Seeds:
4
Leechers:
2
Completed:
27

Similar torrents

  No other torrents available yet for this episode. use IMDB search to search all torrents for this show
Title:
Genre:
News, Talk-Show
Runtime:
60 min    -    Rating: 6.5
Director:
n/A
Plot:
Each week a panel of politicians, journalist and comment writers is chaired by David Dimbleday as they accept questions from the audience. Each of the three major political parties are represented in order to give each an opportunity for their party and their politics to be represented as the topics of the week are raised and discussed in a lively forum that moves to a different part of the UK each week for broadcast.

Description
Question Time 2022-06-23 (1280x720p HD, 50fps, soft Eng subs)  

Fiona Bruce presents an hour of topical debate from Stratford-upon-Avon. On the panel: Rachel Maclean MP, Home Office minister responsible for Safeguarding, Conservative; Nick Thomas-Symonds MP, shadow secretary of state for International Trade, Labour; Mick Lynch, general secretary of the National Union of Rail, Maritime and Transport Workers (RMT); Anne Boden MBE, founder and chief executive officer of Starling Bank; and Ben Habib, chief executive of First Property Group and former Brexit Party MEP.

First broadcast:  23 July 2022  
Duration:  1 hour    
Torrent dead? Request reseed at torrentgalaxy.org - or ask at elsonroa at tutanota.com  
Image error
Media info:
General
Format                                   : MPEG-4
Format profile                           : Base Media
Codec ID                                 : isom (isom/iso2/avc1/mp41)
File size                                : 2.11 GiB
Duration                                 : 59 min 37 s
Overall bit rate mode                    : Variable
Overall bit rate                         : 5 065 kb/s

Video
ID                                       : 1
Format                                   : AVC
Format/Info                              : Advanced Video Codec
Format profile                           : High@L3.2
Format settings                          : CABAC / 4 Ref Frames
Format settings, CABAC                   : Yes
Format settings, Reference frames        : 4 frames
Codec ID                                 : avc1
Codec ID/Info                            : Advanced Video Coding
Duration                                 : 59 min 37 s
Source duration                          : 59 min 37 s
Bit rate                                 : 4 926 kb/s
Width                                    : 1 280 pixels
Height                                   : 720 pixels
Display aspect ratio                     : 16:9
Frame rate mode                          : Variable
Frame rate                               : 50.000 FPS
Minimum frame rate                       : 25.000 FPS
Maximum frame rate                       : 90 000.000 FPS
Color space                              : YUV
Chroma subsampling                       : 4:2:0
Bit depth                                : 8 bits
Scan type                                : Progressive
Bits/(Pixel*Frame)                       : 0.107
Stream size                              : 2.05 GiB (97%)
Source stream size                       : 2.05 GiB (97%)
Color range                              : Limited
Color primaries                          : BT.709
Transfer characteristics                 : BT.709
Matrix coefficients                      : BT.709
mdhd_Duration                            : 3577360
Codec configuration box                  : avcC

Audio
ID                                       : 2
Format                                   : AAC LC
Format/Info                              : Advanced Audio Codec Low Complexity
Codec ID                                 : mp4a-40-2
Duration                                 : 59 min 37 s
Bit rate mode                            : Variable
Bit rate                                 : 125 kb/s
Maximum bit rate                         : 128 kb/s
Channel(s)                               : 2 channels
Channel layout                           : L R
Sampling rate                            : 48.0 kHz
Frame rate                               : 46.875 FPS (1024 SPF)
Compression mode                         : Lossy
Stream size                              : 53.5 MiB (2%)
Language                                 : English


  User comments    Sort newest first

No comments have been posted yet.



Post anonymous comment
  • Comments need intelligible text (not only emojis or meaningless drivel).
  • No upload requests, visit the forum or message the uploader for this.
  • Use common sense and try to stay on topic.

  • :) :( :D :P :-) B) 8o :? 8) ;) :-* :-( :| O:-D Party Pirates Yuk Facepalm :-@ :o) Pacman Shit Alien eyes Ass Warn Help Bad Love Joystick Boom Eggplant Floppy TV Ghost Note Msg


    CAPTCHA Image 

    Anonymous comments have a moderation delay and show up after 15 minutes



      Sitefriends