visiting IP: 3.238.125.76
Are you torrenting safe?
more info

  Torrent details for "Who Do You Think You Are S19E04 Anna Maxwell Martin (1280x720p HD, 50fps, soft Eng subs) "    Log in to bookmark

Torrent details
Cover
Download
Torrent rating (0 rated)
Controls:
Category:
Language:
English English
Total Size:
2.16 GB
Info Hash:
be17d77099cdbe6e8c5d61effadd776d0553aaed
Added By:
Added:  
24-06-2022 01:06 (edited 02-07-2022 00:45) by ElsonRoa:_trusted_uploader::_sitefriend::_male::_sitelover::_junkie::_kitty::_sun::_turtle:
Views:
94
Health:
Seeds:
6
Leechers:
14
Completed:
37

Similar torrents

  No other torrents available yet for this episode. use IMDB search to search all torrents for this show
Genre:
Documentary, Biography, History
Runtime:
60 min    -    Rating: 8.1
Director:
n/A
Plot:
Well known faces within the British media each embark on individual journeys to answer some questions in regards to their own family history. An interesting and intelligent programme for any budding genealogists out there!

Description
Who Do You Think You Are S199E04 Anna Maxwell Martin (1280x720p HD, 50fps, soft Eng subs)  

Being a mum is a massive part of Motherland star Anna Maxwell Martin's life. She is interested in what kinds of parents there were in the family before her, and how this has shaped her own life and the kind of parent she is to her daughters. Travelling to the small town in Northern Ireland where her father grew up, her understanding of her grandparents - who suffered a heartbreaking family tragedy - is turned on its head. On her mother's side, Anna starts with her twinkly grandfather Maxwell, whose name she added to her own to create her stage name. Looking into his childhood, she uncovers a dark history of domestic abuse and family separation. But she also discovers extraordinary familial solidarity and love that changed the pattern for the generations that followed.


First broadcast:  23 June 2022  
Duration: 1 hour    

Torrent dead? Request reseed at torrentgalaxy.org - or ask at elsonroa at tutanota.com  
Image error
Media info:
General

Format                                   : MPEG-4
Format profile                           : Base Media
Codec ID                                 : isom (isom/iso2/avc1/mp41)
File size                                : 2.16 GiB
Duration                                 : 58 min 6 s
Overall bit rate mode                    : Variable
Overall bit rate                         : 5 328 kb/s
:

Video
ID                                       : 1
Format                                   : AVC
Format/Info                              : Advanced Video Codec
Format profile                           : High@L3.2
Format settings                          : CABAC / 4 Ref Frames
Format settings, CABAC                   : Yes
Format settings, Reference frames        : 4 frames
Codec ID                                 : avc1
Codec ID/Info                            : Advanced Video Coding
Duration                                 : 58 min 6 s
Bit rate mode                            : Variable
Bit rate                                 : 5 190 kb/s
Maximum bit rate                         : 7 605 kb/s
Width                                    : 1 280 pixels
Height                                   : 720 pixels
Display aspect ratio                     : 16:9
Frame rate mode                          : Variable
Frame rate                               : 50.000 FPS
Minimum frame rate                       : 25.000 FPS
Maximum frame rate                       : 90 000.000 FPS
Color space                              : YUV
Chroma subsampling                       : 4:2:0
Bit depth                                : 8 bits
Scan type                                : Progressive
Bits/(Pixel*Frame)                       : 0.113
Stream size                              : 2.11 GiB (97%)
Color range                              : Limited
Color primaries                          : BT.709
Transfer characteristics                 : BT.709
Matrix coefficients                      : BT.709
Codec configuration box                  : avcC

Audio
ID                                       : 2
Format                                   : AAC LC
Format/Info                              : Advanced Audio Codec Low Complexity
Codec ID                                 : mp4a-40-2
Duration                                 : 58 min 6 s
Bit rate mode                            : Constant
Bit rate                                 : 128 kb/s
Channel(s)                               : 2 channels
Channel layout                           : L R
Sampling rate                            : 48.0 kHz
Frame rate                               : 46.875 FPS (1024 SPF)
Compression mode                         : Lossy
Stream size                              : 53.2 MiB (2%)
Language                                 : English


  User comments    Sort newest first

No comments have been posted yet.



Post anonymous comment
  • Comments need intelligible text (not only emojis or meaningless drivel).
  • No upload requests, visit the forum or message the uploader for this.
  • Use common sense and try to stay on topic.

  • :) :( :D :P :-) B) 8o :? 8) ;) :-* :-( :| O:-D Party Pirates Yuk Facepalm :-@ :o) Pacman Shit Alien eyes Ass Warn Help Bad Love Joystick Boom Eggplant Floppy TV Ghost Note Msg


    CAPTCHA Image 

    Anonymous comments have a moderation delay and show up after 15 minutes



      Sitefriends