Torrent details for "Lightyear.2022.720p.TELESYNC.x265-iDiOTS"    Log in to bookmark

Torrent details
Cover
Download
Torrent rating (3 rated)
Controls:
Category:
Language:
English English
Total Size:
2.06 GB
Info Hash:
e2566a9348290481044494eade7dff054d09f754
Added By:
ho4x:_trial_uploader:  
Added:  
26-06-2022 16:28 (edited 26-06-2022 16:31) by ho4x:_trial_uploader:
Stats:
| Update



Thanks for rating :
folmas:_male: (5), john46:_male: (4), TheWonder (5),

Similar torrents

Name 
DL
Uploader
Size 
S/L 
Added
797.31 MB
55,538
[446/37]
14/07/22 10:34
Uploaded by GalaxyRG:_trusted_uploader: Size 797.31 MBHealth [446/37]Added 14/07/22 10:34
2.33 GB
1,945
[156/6]
03/08/22 08:35
Uploaded by yerisan710:_trusted_uploader::_sitefriend: Size 2.33 GBHealth [156/6]Added 03/08/22 08:35
-
18.37 GB
2,504
[137/29]
14/07/22 10:40
Uploaded by TGxMovies:_trusted_uploader: Size 18.37 GBHealth [137/29]Added 14/07/22 10:40
-
1.36 GB
447
[136/62]
07/08/22 13:11
Uploaded by ZiroMB:_blocked: Size 1.36 GBHealth [136/62]Added 07/08/22 13:11
-
2.54 GB
685
[104/36]
31/07/22 16:37
Uploaded by SnakeSPL79:_trusted_uploader: Size 2.54 GBHealth [104/36]Added 31/07/22 16:37
1.40 GB
8,981
[103/18]
14/07/22 10:39
Uploaded by GalaxyRG:_trusted_uploader: Size 1.40 GBHealth [103/18]Added 14/07/22 10:39
Title:
Lightyear (2022)
Genre:
Animation, Action, Adventure, Drama, Family, Sci-Fi
Runtime:
100 min    -    Rating: 5
Director:
Plot:
While spending years attempting to return home, marooned Space Ranger Buzz Lightyear encounters an army of ruthless robots commanded by Zurg who are attempting to steal his fuel source.

Description
Lightyear.2022.720p.TELESYNC.x265-iDiOTS

MEDIAINFO

Video
ID                                       : 1
Format                                   : HEVC
Format/Info                              : High Efficiency Video Coding
Format profile                           : Main 10@L4.1@High
Codec ID                                 : V_MPEGH/ISO/HEVC
Duration                                 : 1 h 35 min
Bit rate                                 : 2 755 kb/s
Width                                    : 1 280 pixels
Height                                   : 534 pixels
Display aspect ratio                     : 2.40:1
Frame rate mode                          : Constant
Frame rate                               : 24.000 FPS
Color space                              : YUV
Chroma subsampling                       : 4:2:0
Bit depth                                : 10 bits
Bits/(Pixel*Frame)                       : 0.168
Stream size                              : 1.84 GiB (90%)

Audio
ID                                       : 2
Format                                   : AC-3
Format/Info                              : Audio Coding 3
Commercial name                          : Dolby Digital
Codec ID                                 : A_AC3
Duration                                 : 1 h 35 min
Bit rate mode                            : Constant
Bit rate                                 : 320 kb/s
Channel(s)                               : 2 channels
Channel layout                           : L R
Sampling rate                            : 48.0 kHz
Frame rate                               : 31.250 FPS (1536 SPF)
Compression mode                         : Lossy
Stream size                              : 219 MiB (10%)
Service kind                             : Complete Main
Default                                  : Yes
Forced                                   : No


SCREENSHOTS

Image error
Image error
Image error
Image error
Image error

  User comments    Sort newest first

by Guest-1136
    on 2022-06-29 23:24:40
avatarIs the kiss cut included in this?
2 |
:) :( :D :P :-) B) 8o :? 8) ;) :-* :-( :| O:-D Party Pirates Yuk Facepalm :-@ :o) Pacman Shit Alien eyes Ass Warn Help Bad Love Joystick Boom Eggplant Floppy TV Ghost Note Msg

CAPTCHA Image 
Anonymous comments have a moderation delay and show up after 15 minutes
by john46:_male:
    on 2022-06-27 05:35:18
avataranother great job without ads great stuff keep up the great work the best copy on here
2 |
:) :( :D :P :-) B) 8o :? 8) ;) :-* :-( :| O:-D Party Pirates Yuk Facepalm :-@ :o) Pacman Shit Alien eyes Ass Warn Help Bad Love Joystick Boom Eggplant Floppy TV Ghost Note Msg

CAPTCHA Image 
Anonymous comments have a moderation delay and show up after 15 minutes
by Guest-2525
    on 2022-07-01 09:57:12
avatarCan ho4x please get elvis no good ones out at all

Post anonymous comment
  • Comments need intelligible text (not only emojis or meaningless drivel).
  • No upload requests, visit the forum or message the uploader for this.
  • Use common sense and try to stay on topic.

  • :) :( :D :P :-) B) 8o :? 8) ;) :-* :-( :| O:-D Party Pirates Yuk Facepalm :-@ :o) Pacman Shit Alien eyes Ass Warn Help Bad Love Joystick Boom Eggplant Floppy TV Ghost Note Msg


    CAPTCHA Image 

    Anonymous comments have a moderation delay and show up after 15 minutes



      Sitefriends