Torrent details for "Come.Play.2020.1080p.BluRay.x264-UTiLiTY"    Log in to bookmark

Torrent details
Cover
Download
Torrent rating (0 rated)
Controls:
Category:
Language:
English English
Total Size:
4.12 GB
Info Hash:
af0826ea40953b7f4bb83aecfd79beb0812fca23
Added By:
Added:  
01-07-2022 11:04
Stats:
| Update



Similar torrents

Name 
DL
Uploader
Size 
S/L 
Added
796.79 MB
33,205
[23/3]
01/11/20 03:00
Uploaded by GalaxyRG:_trusted_uploader: Size 796.79 MBHealth [23/3]Added 01/11/20 03:00
3.55 GB
6,603
[7/0]
24/06/22 00:42
Uploaded by GalaxyRG:_trusted_uploader: Size 3.55 GBHealth [7/0]Added 24/06/22 00:42
3.99 GB
8,319
[6/2]
01/11/20 02:19
Uploaded by TGxMovies:_trusted_uploader: Size 3.99 GBHealth [6/2]Added 01/11/20 02:19
-
1.75 GB
2,287
[5/2]
01/11/20 04:12
Uploaded by TGxMovies:_trusted_uploader: Size 1.75 GBHealth [5/2]Added 01/11/20 04:12
-
3.57 GB
1,119
[2/0]
03/07/21 18:24
Uploaded by ArMor:_trusted_user: Size 3.57 GBHealth [2/0]Added 03/07/21 18:24
-
746.82 MB
764
[2/1]
05/08/21 20:39
Uploaded by FDMovies707:_trusted_uploader: Size 746.82 MBHealth [2/1]Added 05/08/21 20:39
Title:
Come Play (2020)
Genre:
Drama, Horror, Mystery, Thriller
Runtime:
n/A    -    Rating: 6
Director:
Plot:
Oliver is a lonely young boy who feels different from everyone else. Desperate for a friend, he seeks solace and refuge in his ever-present cell phone and tablet. When a mysterious creature uses Oliver's devices against him to break into our world, Oliver's parents must fight to save their son from the monster beyond the screen.

Description
Image error

Image error

Image error

Image error

Image error

General
Unique ID: 129000590580322920798708869179488774098 (0x610C9C2A8C3DD86F623031B0CE5EA7D2)
Format: Matroska
Format version: Version 4
File size: 4.12 GiB
Duration: 1 h 36 min
Overall bit rate: 6 118 kb/s
Writing application: mkvmerge v68.0.0 ('The Curtain') 64-bit
Writing library: libebml v1.4.2 + libmatroska v1.6.4

Video
ID: 1
Format: AVC
Format/Info: Advanced Video Codec
Format profile: High@L4.1
Format settings: CABAC / 5 Ref Frames
Format settings, CABAC: Yes
Format settings, Reference frames: 5 frames
Codec ID: V_MPEG4/ISO/AVC
Duration: 1 h 36 min
Bit rate: 4 581 kb/s
Width: 1 920 pixels
Height: 804 pixels
Display aspect ratio: 2.40:1
Frame rate mode: Constant
Frame rate: 23.976 (24000/1001) FPS
Color space: YUV
Chroma subsampling: 4:2:0
Bit depth: 8 bits
Scan type: Progressive
Bits/(Pixel*Frame): 0.124
Stream size: 3.09 GiB (75%)
Writing library: x264 core 164 r3065 ae03d92
Encoding settings: cabac=1 / ref=5 / deblock=1:-2:-2 / analyse=0x3:0x133 / me=umh / subme=9 / psy=1 / psy_rd=1.00:0.00 / mixed_ref=1 / me_range=16 / chroma_me=1 / trellis=2 / 8x8dct=1 / cqm=0 / deadzone=6,6 / fast_pskip=1 / chroma_qp_offset=-2 / threads=12 / lookahead_threads=1 / sliced_threads=0 / nr=0 / decimate=0 / interlaced=0 / bluray_compat=0 / constrained_intra=0 / bframes=3 / b_pyramid=2 / b_adapt=2 / b_bias=0 / direct=3 / weightb=1 / open_gop=0 / weightp=2 / keyint=240 / keyint_min=24 / scenecut=40 / intra_refresh=0 / rc_lookahead=60 / rc=crf / mbtree=1 / crf=19.0 / qcomp=0.80 / qpmin=0 / qpmax=69 / qpstep=4 / vbv_maxrate=62500 / vbv_bufsize=78125 / crf_max=0.0 / nal_hrd=none / filler=0 / ip_ratio=1.10 / aq=3:0.50
Default: Yes
Forced: No
Color range: Limited
Color primaries: BT.709
Transfer characteristics: BT.709
Matrix coefficients: BT.709

Audio
ID: 2
Format: DTS
Format/Info: Digital Theater Systems
Codec ID: A_DTS
Duration: 1 h 36 min
Bit rate mode: Constant
Bit rate: 1 509 kb/s
Channel(s): 6 channels
Channel layout: C L R Ls Rs LFE
Sampling rate: 48.0 kHz
Frame rate: 93.750 FPS (512 SPF)
Bit depth: 24 bits
Compression mode: Lossy
Stream size: 1.02 GiB (25%)
Language: English
Default: Yes
Forced: No

Text
ID: 3
Format: PGS
Codec ID: S_HDMV/PGS
Codec ID/Info: Picture based subtitle format used on BDs/HD-DVDs
Duration: 1 h 31 min
Bit rate: 26.7 kb/s
Count of elements: 1956
Stream size: 17.5 MiB (0%)
Title: English SDH
Language: English
Default: No
Forced: No

  User comments    Sort newest first

No comments have been posted yet.



Post anonymous comment
  • Comments need intelligible text (not only emojis or meaningless drivel).
  • No upload requests, visit the forum or message the uploader for this.
  • Use common sense and try to stay on topic.

  • :) :( :D :P :-) B) 8o :? 8) ;) :-* :-( :| O:-D Party Pirates Yuk Facepalm :-@ :o) Pacman Shit Alien eyes Ass Warn Help Bad Love Joystick Boom Eggplant Floppy TV Ghost Note Msg


    CAPTCHA Image 

    Anonymous comments have a moderation delay and show up after 15 minutes



      Sitefriends